ค้นหา
โฆษณา
Uwantav
ดู: 1024|ตอบกลับ: 0

[ลิ๊งเดียวจบ][FullHQ+SuperHQ มาสเตอร์มาแล้ว] Tomb Raider (2018) : ทูม เรเดอร์ [1080p][พากย์ไทย5.1+อังกฤษDTS][บรรยายไทย+อังกฤษ]

[คัดลอกลิงก์]

Social Network

I'm 火星人!  ดูโปรไฟล์ ส่ง PM เพิ่มเป็นเพื่อน สะกิด
 No:453
 EXP:
 เครดิต:  0
 โพสต์: 23 (0)
 พลังน้ำใจ: 0
 แต้ม VT:  306
 Vip Point 0 บาท
 สนับสนุนแล้ว: 0 บาท
 ออนไลน์: 12 ชั่วโมง
 ลงทะเบียน: 2015-5-26
 ล่าสุด: 2019-8-15
โพสต์ 2018-7-4 15:41:33 |ดูโพสต์ทั้งหมด
แก้ไขครั้งสุดท้ายโดย phunmoon เมื่อ 2018-7-4 17:19


หลังจากที่พ่อของเธอหายตัวไป ลาร่าก็หาเลี้ยงชีพด้วยการเป็นเด็กส่งเอกสาร แต่เมื่อเธอได้รับแจ้งว่าถ้าไม่กลับไปรับช่วงดูแลมรด กที่พ่อของเธอ คือลอร์ดริชาร์ด ครอฟท์ ทิ้งไว้ให้ ทรัพย์สินทั้งหมดจะถูกขายทอดตลาด ลาร่าจึงต้องกลับไปที่บ้านและได้พบบันทึกของพ่อที่พู ดถึงการค้นหาฮิมิโกะ ผู้ปกครองเกาะลึกลับชื่อ ยามาไต ที่อ้างว่าเป็นผู้ครอบครองพลังแห่งชีวิตและความตาย พร้อมทั้งบอกให้เธอทำลายเอกสารการค้นคว้าทั้งหมด แต่ลาร่าตัดสินใจที่จะออกไปค้นหาความจริงในเรื่องนี้ !!!
Format : Matroska
Format version : Version 4 / Version 2
File size : 3.53 GiB
Duration : 1h 57mn
Overall bit rate : 4 286 Kbps
Movie name : MiniHQ.Tomb.Raider.2018.1080p.BRRip.DTS_hdfile4you .clubhd4you.net
Encoded date : UTC 2018-06-28 12:39:56
Writing application : mkvmerge v21.0.0 ('Tardigrades Will Inherit The Earth') 64-bit
Writing library : libebml v1.3.5 + libmatroska v1.4.8
DURATION : 01:56:40.649000000
NUMBER_OF_FRAMES : 892
NUMBER_OF_BYTES : 1214256
_STATISTICS_WRITING_APP : mkvmerge v21.0.0 ('Tardigrades Will Inherit The Earth') 64-bit
_STATISTICS_WRITING_DATE_UTC : 2018-06-28 12:39:56
_STATISTICS_TAGS : BPS DURATION NUMBER_OF_FRAMES NUMBER_OF_BYTES

Video
ID : 1
Format : AVC
Format/Info : Advanced Video Codec
Format profile : [email protected]
Format settings, CABAC : Yes
Format settings, ReFrames : 5 frames
Codec ID : V_MPEG4/ISO/AVC
Duration : 1h 57mn
Bit rate : 3 050 Kbps
Width : 1 920 pixels
Height : 800 pixels
Display aspect ratio : 2.40:1
Frame rate mode : Constant
Frame rate : 23.976 fps
Color space : YUV
Chroma subsampling : 4:2:0
Bit depth : 8 bits
Scan type : Progressive
Bits/(Pixel*Frame) : 0.083
Stream size : 2.47 GiB (70%)
Title : MiniHQ.Tomb.Raider.2018.1080p.BRRip.DTS_hdfile4you .clubhd4you.net
Writing library : x264 core 155 r2901 7d0ff22
Encoding settings : cabac=1 / ref=5 / deblock=1:-1:-1 / analyse=0x3:0x133 / me=umh / subme=9 / psy=1 / psy_rd=1.00:0.00 / mixed_ref=1 / me_range=16 / chroma_me=1 / trellis=2 / 8x8dct=1 / cqm=0 / deadzone=21,11 / fast_pskip=1 / chroma_qp_offset=-4 / threads=12 / lookahead_threads=1 / sliced_threads=0 / slices=4 / nr=0 / decimate=1 / interlaced=0 / bluray_compat=0 / constrained_intra=0 / bframes=5 / b_pyramid=2 / b_adapt=2 / b_bias=0 / direct=3 / weightb=1 / open_gop=1 / weightp=2 / keyint=240 / keyint_min=23 / scenecut=288 / intra_refresh=0 / rc_lookahead=60 / rc=2pass / mbtree=1 / bitrate=3050 / ratetol=1.0 / qcomp=0.60 / qpmin=3 / qpmax=69 / qpstep=4 / cplxblur=20.0 / qblur=0.5 / vbv_maxrate=62500 / vbv_bufsize=78125 / nal_hrd=none / filler=0 / ip_ratio=1.40 / aq=1:1.00
Language : English
Default : Yes
Forced : No

Audio #1
ID : 2
Format : AC-3
Format/Info : Audio Coding 3
Mode extension : CM (complete main)
Format settings, Endianness : Big
Codec ID : A_AC3
Duration : 1h 57mn
Bit rate mode : Constant
Bit rate : 448 Kbps
Channel(s) : 6 channels
Channel positions : Front: L C R, Side: L R, LFE
Sampling rate : 48.0 KHz
Bit depth : 16 bits
Compression mode : Lossy
Stream size : 378 MiB (10%)
Title : Thai AC3 5.1 BluRay Master By_hdfile4you.clubhd4you.net
Language : Thai
Default : Yes
Forced : Yes

Audio #2
ID : 3
Format : DTS
Format/Info : Digital Theater Systems
Mode : 16
Format settings, Endianness : Big
Codec ID : A_DTS
Duration : 1h 57mn
Bit rate mode : Constant
Bit rate : 755 Kbps
Channel(s) : 6 channels
Channel positions : Front: L C R, Side: L R, LFE
Sampling rate : 48.0 KHz
Bit depth : 24 bits
Compression mode : Lossy
Stream size : 636 MiB (18%)
Title : Eng DTS 5.1 By_hdfile4you.clubhd4you.net
Language : English
Default : No
Forced : No

Text #1
ID : 4
Format : UTF-8
Codec ID : S_TEXT/UTF8
Codec ID/Info : UTF-8 Plain Text
Title : Eng SRT
Language : English
Default : No
Forced : No

Text #2
ID : 5
Format : PGS
Muxing mode : zlib
Codec ID : S_HDMV/PGS
Codec ID/Info : The same subtitle format used on BDs/HD-DVDs
Title : Eng PGS
Language : English
Default : No
Forced : No

Text #3
ID : 6
Format : PGS
Muxing mode : zlib
Codec ID : S_HDMV/PGS
Codec ID/Info : The same subtitle format used on BDs/HD-DVDs
Title : Thai PGS BluRay Master
Language : Thai
Default : Yes
Forced : Yes

Text #4
ID : 7
Format : PGS
Muxing mode : zlib
Codec ID : S_HDMV/PGS
Codec ID/Info : The same subtitle format used on BDs/HD-DVDs
Title : Thai PGS BluRay Master LOW
Language : Thai
Default : No
Forced : No

Text #5
ID : 8
Format : VobSub
Muxing mode : zlib
Codec ID : S_VOBSUB
Codec ID/Info : The same subtitle format used on DVDs
Title : Thai 1080p
Language : Thai
Default : No
Forced : No

Text #6
ID : 9
Format : VobSub
Muxing mode : zlib
Codec ID : S_VOBSUB
Codec ID/Info : The same subtitle format used on DVDs
Title : Thai 1080p LOW
Language : Thai
Default : No
Forced : No

Text #7
ID : 10
Format : VobSub
Muxing mode : zlib
Codec ID : S_VOBSUB
Codec ID/Info : The same subtitle format used on DVDs
Title : Thai 480p
Language : Thai
Default : No
Forced : No

Text #8
ID : 11
Format : VobSub
Muxing mode : zlib
Codec ID : S_VOBSUB
Codec ID/Info : The same subtitle format used on DVDs
Title : Thai 480p LOW
Language : Thai
Default : No
Forced : No


ดาวน์โหลด
เครดิต
4youloadedth




ขออภัย! คุณไม่ได้รับสิทธิ์ในการดำเนินการในส่วนนี้ กรุณาเลือกอย่างใดอย่างหนึ่ง ลงชื่อเข้าใช้ | ลงทะเบียน

รายละเอียดเครดิต

อุปกรณ์พกพา|ข้อความล้วน|Vrwant.org  

GMT+7, 2020-10-24 16:47 , Processed in 0.030237 second(s), 26 queries .

Powered by Discuz! X3.4

© 2001-2013 Befer Inc.

ตอบกระทู้ ขึ้นไปด้านบน ไปที่หน้ารายการกระทู้